From Hell(2001)MPEG-4[DaScubaDude]

seeders:
leechers:
updated:
Added by dascuba in TV
Torrent verified.

From Hell(2001)MPEG-4[DaScubaDude] (Size: )
FROMHELLDTSTHX_D1_Title1.mp41.14 GiB

Description

From Hell (2001)
R | 2h 2min | Horror, Mystery, Thriller | 19 October 2001 (USA)
General
Complete name                            : From HellFROMHELLDTSTHX_D1_Title1.mp4
Format                                   : MPEG-4
Format profile                           : Base Media
Codec ID                                 : isom (isom/iso2/avc1/mp41)
File size                                : 1.14 GiB
Duration                                 : 2 h 2 min
Overall bit rate                         : 1 330 kb/s
Movie name                               : FROMHELLDTSTHX_D1
Genre                                    : Thriller
Writing application                      : Lavf54.6.100

Video
ID                                       : 1
Format                                   : AVC
Format/Info                              : Advanced Video Codec
Format profile                           : [email protected]
Format settings, CABAC                   : No
Format settings, RefFrames               : 6 frames
Codec ID                                 : avc1
Codec ID/Info                            : Advanced Video Coding
Duration                                 : 2 h 2 min
Bit rate                                 : 1 195 kb/s
Width                                    : 720 pixels
Height                                   : 404 pixels
Display aspect ratio                     : 16:9
Frame rate mode                          : Constant
Frame rate                               : 29.970 (30000/1001) FPS
Color space                              : YUV
Chroma subsampling                       : 4:2:0
Bit depth                                : 8 bits
Scan type                                : Progressive
Bits/(Pixel*Frame)                       : 0.137
Stream size                              : 1.02 GiB (90%)

Audio
ID                                       : 2
Format                                   : AAC
Format/Info                              : Advanced Audio Codec
Format profile                           : LC
Codec ID                                 : 40
Duration                                 : 2 h 2 min
Bit rate mode                            : Constant
Bit rate                                 : 128 kb/s
Channel(s)                               : 2 channels
Channel positions                        : Front: L R
Sampling rate                            : 44.1 kHz
Frame rate                               : 43.066 FPS (1024 spf)
Compression mode                         : Lossy
Stream size                              : 112 MiB (10%)
Default                                  : Yes
Alternate group                          : 1

Sharing Widget


Download torrent
seeders:
leechers:
From Hell(2001)MPEG-4[DaScubaDude]



To share this torrent use the code below and insert it into comments, status messages, forum posts or your signature.

Torrent: From Hell(2001)MPEG-4[DaScubaDude]

Trackers

tracker name
udp://tracker.coppersurfer.tk:6969/announce
udp://9.rarbg.me:2710/announce
udp://p4p.arenabg.ch:1337/announce
udp://tracker.leechers-paradise.org:6969/announce
udp://eddie4.nl:6969/announce
udp://thetracker.org:80/announce
udp://tracker.coppersurfer.tk:6969
udp://explodie.org:6969/announce
udp://tracker.aletorrenty.pl:2710/announce
udp://9.rarbg.to:2710/announce
udp://torrent.gresille.org:80/announce
udp://tracker.opentrackr.org:1337/announce
udp://tracker.piratepublic.com:1337/announce
udp://tracker.sktorrent.net:6969/announce
udp://zer0day.ch:1337/announce
??Torrent compatible trackers list

Locations

name
KickassTorrents
Torrent hash: 4083A69D6A434057FC19ED0FFDCA30C90F88078C

All Comments

audio
0/10
video
0/10
please, leave only comments related to that torrent
Sign In

Report a bug Open chat